請選擇 進入手機版 | 繼續訪問電腦版
馬上註冊  |  找回密碼

SAY討論區

查看: 1280|回復: 3

[MKV/10.9G]地球造人 How Earth Made Us [複製鏈接]

Rank: 4

好友
0
帖子
1548
積分
3108
最後登錄
2012-3-10
在線時間
0 小時
發表於 2012-4-18 01:16:49 |顯示全部樓層




【英文片名】:How Earth Made Us
【國家地區】:英國
【出品年代】:2010
【影片類型】:紀錄片
【片  長】:59 mins ×5
【對白語言】:英語
【視頻尺寸】:1280x720
【編碼格式】:x264+AC3
【影片大小】:1.09GB ×5
【字幕類型】:中文字幕
【IMDB鏈接】:http://www.imdb.com/title/tt1588224
【IMDB評分】:8.0/10 32 votes

【剧情简介】:
   
   BBC最新纪录片,讲述地球的力量如何改变了人类的历史。 2010年1月19日首播,共播出了5集:Water,Deep Earth, Wind, Fire,Human Planet。节目中,Iain Stewart教授带领观众探究几个世纪以来,地质学、地理学和气候是如何影响人类生活的。
   我们的星球拥有惊人的力量,但却很少在教科书中被提起。这个系列节目第一次通过电视展现地球的神奇力量对人类发展的影响。节目将历史故事的讲述和炫目的摄影镜头紧密结合,给我们呈现一幅原汁原味的人类历史图景。

按這裡可在新視窗開啟



\How.Earth.Made.Us.HK.2010.E01.720p.BluRay.x264.2Audio-HDCTV.mkv
    Format : Matroska
    Format version : Version 2
    File size : 2.19 GiB
    Duration : 50mn 21s
    Overall bit rate : 6 218 Kbps
    Movie name : Encoded By HDCTV Team
    Encoded date : UTC 2011-05-12 07:40:24
    Writing application : mkvmerge v3.3.0 ('Language') built on Mar 24 2010 14:59:24
    Writing library : libebml v0.8.0 + libmatroska v0.9.0
  Video #1
    ID : 1
    Format : AVC
    Format/Info : Advanced Video Codec
    Format profile : High@L3.1
    Format settings, CABAC : Yes
    Format settings, ReFrames : 5 frames
    Codec ID : V_MPEG4/ISO/AVC
    Duration : 50mn 21s
    Bit rate : 5 445 Kbps
    Width : 1 280 pixels
    Height : 720 pixels
    Display aspect ratio : 16:9
    Frame rate : 29.970 fps
    Color space : YUV
    Chroma subsampling : 4:2:0
    Bit depth : 8 bits
    Scan type : Progressive
    Bits/(Pixel*Frame) : 0.197
    Stream size : 1.87 GiB (86%)
    Title : terliu@HDCTV
    Writing library : x264 core 98 r1649 c54c47d
    Encoding settings : cabac=1 / ref=5 / deblock=1:-3:-3 / analyse=0x3:0x113 / me=umh / subme=7 / psy=1 / psy_rd=1.00:0.00 / mixed_ref=1 / me_range=16 / chroma_me=1 / trellis=1 / 8x8dct=1 / cqm=0 / deadzone=21,11 / fast_pskip=0 / chroma_qp_offset=-2 / threads=24 / sliced_threads=0 / nr=0 / decimate=0 / interlaced=0 / constrained_intra=0 / bframes=6 / b_pyramid=2 / b_adapt=1 / b_bias=0 / direct=3 / weightb=1 / weightp=2 / keyint=250 / keyint_min=25 / scenecut=40 / intra_refresh=0 / rc_lookahead=40 / rc=2pass / mbtree=1 / bitrate=5445 / ratetol=1.0 / qcomp=0.60 / qpmin=10 / qpmax=51 / qpstep=4 / cplxblur=20.0 / qblur=0.5 / vbv_maxrate=20000 / vbv_bufsize=20000 / ip_ratio=1.40 / aq=1:1.00 / nal_hrd=none
    Language : Chinese
    Default : Yes
    Forced : No
  Audio #2
    ID : 2
    Format : AC-3
    Format/Info : Audio Coding 3
    Mode extension : CM (complete main)
    Codec ID : A_AC3
    Duration : 50mn 21s
    Bit rate mode : Constant
    Bit rate : 384 Kbps
    Channel(s) : 2 channels
    Channel positions : Front: L R
    Sampling rate : 48.0 KHz
    Bit depth : 16 bits
    Compression mode : Lossy
    Stream size : 138 MiB (6%)
    Title : Chinese
    Language : Chinese
    Default : Yes
    Forced : No
  Audio #3
    ID : 3
    Format : AC-3
    Format/Info : Audio Coding 3
    Mode extension : CM (complete main)
    Codec ID : A_AC3
    Duration : 50mn 21s
    Bit rate mode : Constant
    Bit rate : 384 Kbps
    Channel(s) : 2 channels
    Channel positions : Front: L R
    Sampling rate : 48.0 KHz
    Bit depth : 16 bits
    Compression mode : Lossy
    Stream size : 138 MiB (6%)
    Title : Chinese
    Language : Chinese
    Default : No
    Forced : No
  Text #4
    ID : 4
    Format : UTF-8
    Codec ID : S_TEXT/UTF8
    Codec ID/Info : UTF-8 Plain Text
    Title : Chs
    Language : Chinese
    Default : Yes
    Forced : No
  Text #5
    ID : 5
    Format : UTF-8
    Codec ID : S_TEXT/UTF8
    Codec ID/Info : UTF-8 Plain Text
    Title : Cht
    Language : Chinese
    Default : No
    Forced : No

本资源搜集自互联网,仅供带宽测试之用。
请勿用于任何商业盈利目的,后果自负!
请在下载后24小时内删除。请购买正版!   

Utorrent作种  
请用Utorrent下载

请于下载完成后 作种1小时以上
遊客,如果您要查看本帖隱藏內容請 回覆

好友
0
帖子
140409
積分
140416
最後登錄
2019-9-16
在線時間
0 小時
發表於 2012-5-7 23:29:11 |顯示全部樓層
回個帖子支持一下!

Rank: 2

好友
0
帖子
41
積分
76
最後登錄
2012-5-28
在線時間
12 小時
發表於 2012-5-10 22:22:31 |顯示全部樓層
本帖最後由 kennethtam 於 2012-5-10 22:22 編輯

Thanks for sharing !

Rank: 3Rank: 3

好友
0
帖子
115
積分
420
最後登錄
2016-5-10
在線時間
51 小時
發表於 2012-6-20 23:10:46 |顯示全部樓層


with thousand thanks la
您需要登錄後才可以回帖 登錄 | 馬上註冊 |

無覓相關文章外掛程式

Archiver|手機版|SAY討論區

GMT+8, 2019-9-16 08:20 , Processed in 0.074449 second(s), 9 queries .

Powered by go2tutor.comDiscuz! X2

© 2019 Community Networks Limited

回頂部